首页 > 电影 > 正文

夜激情.Erotic Nights.1989.LD_D5.x264.AAC.480P.YYH3D.xt【粤语中英字】【何藩】
2017-04-08 19:02:04   来源:   评论:0 点击:

夜激情.Erotic Nights.1989.LD_D5.x264.AAC.480P.YYH3D.xt【粤语中英字】【何藩】电驴链接下载地址:


夜激情.Erotic Nights.1989.LD_D5.x264.AAC.480P.YYH3D.xt【粤语中英字】【何藩】
http://www.imdb.com/title/tt0100981/
http://hkmdb.com/db/movies/view.mhtml?id=7162&complete_credits=1&display_set=big5

【BT磁力】magnet:?xt=urn:btih:eb25d3b946d471785e1002714a9058c9e5f7669e&dn=YYH3D影视论坛480P电影百部合集(二)或magnet:?xt=urn:btih:4384463cea93bc2ca2803572de647925ba7cc51d&dn=单独此电影
【百度网盘】  http://pan.baidu.com/s/1dFMOlFF

夜激情 (1989) 
Erotic Nights
  
地區: 香港  
院線: 德寶   
片種: 成人   
Theatrical Run: 12/07/1989

導演 
  何藩    
 
編劇
  胡雪聰 
  江香生 
  何藩      
 演員
  汪永芳     
  陳蓓琪     
  洛可兒     
  齊漢     
  傅宏達     
  吳業光     
  何柏光     
  洪克     
  錢文錡     
  金彪
  陳健生     
  陳健一     
  陳月茹     
  李華幹     
  許思敏     
  何子滿    
  張兆     
  梁心     
  梁榮炎     
  梁宏發
剧情简介:
     Ann家境富裕,性格保守,追求完美真爱。Lily家境贫穷,性格开放,立志追逐名利,不择手段。 Julia生性乐天,绰号「傻猪」,是一个开心果。三人是艺训班同学,毕业之后却只有Lily一人顺裡考取演员资格,而Lily也因此认识了美术指导Jean。是摄影师也是画家的Jean邀请Lily拍摄写真,并发生关系。之后Lily的大胆作风让她脱颖而出,被三级片老板看上,并将她捧成女主角。
     Jean为了继续寻找灵感,请Ann做模特儿画裸像,两人也开始同居,此时Lily在某个聚会场合中,因受不了老板那班猪朋狗友奚落侮辱,因此愤而离席,也让她丢了女主角的宝座。失意的Lily回头寻求Jean的安慰,但却被Ann发现,而Ann也只好伤心离开。
      后来Jean又发现Julia这个拥有「禁果式的美」的女孩,并将她重新包装,拍摄一系列写真,两人当然也发生了关系,只不过这样的感情并不长久,Jean就为了新灵感、新刺激而离开Julia。
     三个不同个性的女孩,在遭遇重重人生挫折与打击之后,体会到什麽才是真正的人生,决定重拾友谊、携手向前。http://app2.atmovies.com.tw/film/fUcmb3031293/

【截图】   http://pic.yupoo.com/appcht/Gm7ufnyG/Gk1s9.jpg
General
Unique ID                      : 229066157204502591282492209809619097019 (0xAC5489820BA4964098D6D0F9F6D715BB)
Complete name                  : [yyh3d.com]夜激情.Erotic Nights.1989.LD_D5.x264.AAC.480P.YYH3D.xt.mkv
Format                         : Matroska
Format version                 : Version 4 / Version 2
File size                      : 460 MiB
Duration                       : 1 h 25 min
Overall bit rate               : 750 kb/s
Movie name                     : LD_DVD5-480P*by_yyh3d.com*xtayihcell*压制   影视交流群:16629771
Encoded date                   : UTC 2016-02-17 14:59:10
Writing application            : mkvmerge v7.2.0 ('On Every Street') 64bit built on Sep 13 2014 15:52:10
Writing library                : libebml v1.3.0 + libmatroska v1.4.1Video
ID                             : 1
Format                         : AVC
Format/Info                    : Advanced Video Codec
Format profile                 : High@L4
Format settings, CABAC         : Yes
Format settings, ReFrames      : 16 frames
Codec ID                       : V_MPEG4/ISO/AVC
Duration                       : 1 h 25 min
Bit rate                       : 700 kb/s
Width                          : 848 pixels
Height                         : 496 pixels
Display aspect ratio           : 1.710
Frame rate mode                : Constant
Frame rate                     : 23.976 (24000/1001) FPS
Color space                    : YUV
Chroma subsampling             : 4:2:0
Bit depth                      : 8 bits
Scan type                      : Progressive
Bits/(Pixel*Frame)             : 0.069
Stream size                    : 430 MiB (93%)
Title                          : LD_DVD5-480P*by_yyh3d.com*xtayihcell*压制   影视交流群:16629771
Writing library                : x264 core 89 r1471kGIT 1144615
Encoding settings              : cabac=1 / ref=16 / deblock=1:0:0 / analyse=0x3:0x113 / me=umh / subme=9 / psy=1 / psy_rd=1.00:0.00 / mixed_ref=1 / me_range=32 / chroma_me=1 / trellis=2 / 8x8dct=1 / cqm=0 / deadzone=21,11 / fast_pskip=0 / chroma_qp_offset=-2 / threads=12 / sliced_threads=0 / nr=0 / decimate=1 / interlaced=0 / constrained_intra=0 / bframes=16 / b_pyramid=2 / b_adapt=2 / b_bias=0 / direct=3 / wpredb=1 / wpredp=2 / keyint=250 / keyint_min=25 / scenecut=40 / intra_refresh=0 / rc_lookahead=40 / rc=2pass / mbtree=1 / bitrate=700 / ratetol=1.0 / qcomp=0.60 / qpmin=10 / qpmax=51 / qpstep=4 / cplxblur=20.0 / qblur=0.5 / ip_ratio=1.40 / aq=1:1.00 / pulldown=0
Language                       : Chinese
Default                        : Yes
Forced                         : NoAudio
ID                             : 2
Format                         : AAC
Format/Info                    : Advanced Audio Codec
Format profile                 : HE-AAC / LC
Codec ID                       : A_AAC
Duration                       : 1 h 25 min
Bit rate                       : 48.0 kb/s
Channel(s)                     : 2 channels
Channel positions              : Front: L R
Sampling rate                  : 48.0 kHz / 24.0 kHz
Frame rate                     : 23.438 FPS (1024 spf)
Compression mode               : Lossy
Stream size                    : 29.4 MiB (6%)
Title                          : 粤语
Language                       : Chinese
Default                        : Yes
Forced                         : NoText
ID                             : 3
Format                         : PGS
Muxing mode                    : zlib
Codec ID                       : S_HDMV/PGS
Codec ID/Info                  : Picture based subtitle format used on BDs/HD-DVDs
Duration                       : 1 h 0 min
Bit rate                       : 144 b/s
Count of elements              : 6
Stream size                    : 63.4 KiB (0%)
Title                          : 中英硬字幕
Language                       : Chinese
Default                        : Yes
Forced                         : No

[yyh3d.com]夜激情.Erotic Nights.1989.LD_D5.x264.AAC.480P.YYH3D.xt.mkv
File size: 460.12 MB
CRC32: 78fda6fd
MD5: 2cdd4cb7975698c2500b5525c4ce98d8
SHA1: b6ac564aab7b11e5dd3de0c22030624b324ad36c
ED2K: 881c024401b83bd9f0f1ddb712567ba1


【注:
1.简单导出搜索的ed2k链接:在软件emule(电骡)输关键字搜索,然后点任意一搜索结果,按ctrl+A全选,再按ctrl+C复制。不选的资源可事先单击出现"移除搜索所选的结果"即可;搜索结果按排序列出,可单击标题"文件名“或"大小"或"可用源数(来源)"等等。如何有效进行搜索或有其他疑问,可到"emule"百度贴吧看看或问问。
2.如果机子曾运行过两个或以上的emule软件版本,运行新emule软件,出现的界面是机子之前安装的旧版。个人解决经验:先用软件"everything",搜在机子"emule"相关文件及文件夹并删除,再运行新emule软件,就会出现新emule界面了。】

相关热词搜索:夜激情 Erotic Nights 1989 LD_D5 x264 AAC 480P YYH3D xt【粤语中英字】【何藩】

上一篇:劫数 Aftermath.2017.1080p.WEB-DL
下一篇:不忠妻子的比赛 Games For An Unfaithful Wife[784MB/AVI/]

分享到: 收藏