首页 > 电影 > 正文

【康乃馨之吻 / 色魔】(Carnal Sins)[成人片]
2014-10-27 08:21:35   来源:ed2k   评论:0 点击:

【康乃馨之吻 / 色魔】(Carnal Sins)[成人片]电驴链接下载地址:


《康乃馨之吻 / 色魔》(Carnal Sins)[成人片]
《康乃馨之吻 / 色魔》(Carnal Sins) 2001 【成人片】导演: Madison Monroe
主演: Brandy Davis ... Maria / Danny Pape ... Dylan
类型: 剧情 / 爱情
制片国家/地区: 美国
语言: 英语
IMDb链接: tt0291066
剧情:
  玛丽亚感觉自己受到性爱的约束,所以决定逃避自己的男友迪伦,迪伦决定激起她内心的骚动和摄影艺术能力。玛丽亚遇上了迷人的摄影师雅各布,雅各布成了她裸*照摄影和解脱各种感情困境的良师益友,自然玛丽亚对他投怀送抱,在她阁楼的公寓里,玛丽亚渐渐发现了自己的才华,并填补了自己性*爱生活的空白,找到了自己的真爱所在。
BT磁力:magnet:?xt=urn:btih:d3eaad883eb25770875f27296e073b38d7c6c3be&xl=447970586ed2k://│file│[阳光法国原创组][美国·剧情][康乃馨之吻][RMVB-426M][英语·中字].rmvb│447470553│5D24EB1086EBBE1A6F51357D29796EB8│/代码General
Complete name : [阳光法国原创组][美国·剧情][康乃馨之吻][RMVB-426M][英语·中字].rmvb
Format : RealMedia
File size : 427 MiB
Duration : 1h 24mn
Overall bit rate : 699 Kbps
Movie name : 【康乃馨之吻】
Performer : www.suneuro.org ☆ kuger ☆
Copyright : ※阳光法国※Video
ID : 1
Format : RealVideo 4
Codec ID : RV40
Codec ID/Info : Based on AVC (H.264), Real Player 9
Duration : 1h 24mn
Bit rate : 571 Kbps
Width : 800 pixels
Height : 600 pixels
Display aspect ratio : 4:3
Frame rate : 25.000 fps
Bits/(Pixel*Frame) : 0.048
Stream size : 345 MiB (81%)Audio
ID : 0
Format : AAC
Format/Info : Advanced Audio Codec
Format profile : LC
Codec ID : raac
Codec ID/Info : Real Player 9
Duration : 1h 24mn
Bit rate : 128 Kbps
Channel(s) : 2 channels
Sampling rate : 44.1 KHz
Bit depth : 16 bits
Compression mode : Lossy
Stream size : 77.3 MiB (18%)

相关热词搜索:【康乃馨之吻 色魔】(Carnal Sins)[成人片]

上一篇:【我是另一个】( Ich bin die Andere / I Am the Other Woman )
下一篇:【春天交响曲 / 春之颂 】( Frühlingssinfonie / Fruhlingssinfonie )

分享到: 收藏