首页 > 电影 > 正文

【我是另一个】( Ich bin die Andere / I Am the Other Woman )
2014-10-27 08:21:35   来源:ed2k   评论:0 点击:

【我是另一个】( Ich bin die Andere / I Am the Other Woman )电驴链接下载地址:


《我是另一个》( Ich bin die Andere / I Am the Other Woman )
《我是另一个》( Ich bin die Andere / I Am the Other Woman ) 2006
导演: 玛格雷特·冯·特洛塔
编剧: Pea Fröhlich / 彼特·马瑟斯米尔
主演: 奧古斯特·迪赫August Diehl / 卡嘉·瑞曼 / 阿明·缪勒-斯塔尔
类型: 剧情
制片国家/地区: 德国
语言: 德语
上映日期: 2006-09-15
片长: 104 分钟
IMDb链接: tt0484434
剧情:
  罗伯特·法伯瑞Robert Fabry(奧古斯特·迪赫饰)是一位事业成功的桥梁设计工程师。一天,罗伯特·法伯瑞陪着一个客户走进了一家豪华大饭店,见到了一个穿红裙的高级娼妓凯瑟琳·文特Carolin Winter(卡嘉·瑞曼饰),她在勾引几个客人都不成功的情况下,向男人们展开了进乎疯狂的不礼貌的情爱攻势。罗伯特·法伯瑞想帮助了她,将她称作爱丽丝,还把她领进了自己的房间。经历了激情的一夜后的第二天早上,罗伯特·法伯瑞醒来时,发现凯瑟琳·文特已经离开了。
  第二天,在罗伯特·法伯瑞的办公室里,老板介绍了一个新搭档与他认识,这个新搭档便是迷人的女商人凯瑟琳·文特,只是没有穿昨晚的红裙而已。其实,凯瑟琳·文特是个权威的律师,自己经营了一家公司。出于好奇,罗伯特·法伯瑞请凯瑟琳·文特共进晚餐,当罗伯特·法伯瑞想对她进行爱情攻势时,凯瑟琳·文特居然拒绝了他。而晚上,在罗伯特·法伯瑞在饭店里,她又成了妓女爱丽丝。
  时而是女商人凯瑟琳,时而是妓女爱丽丝,后来居然又成了卡罗达Carlotta,凯瑟琳·文特的若即若离让罗伯特·法伯瑞处于疯狂的边缘。罗伯特·法伯瑞猜想,可能是当了所有男人们的愿望,便是希望自己的梦中情人白天是淑女,晚上是荡妇。罗伯特·法伯瑞的好友布莱塔Britta(伯纳黛特·赫文哥恩饰)让罗伯特·法伯瑞去凯瑟琳·文特的家里探个究竟。布莱塔在听罗伯特·法伯瑞向他讲述的整个恋爱事件后,说罗伯特·法伯瑞与凯瑟琳·文特是没有未来的。
  罗伯特·法伯瑞来到凯瑟琳·文特建在山里的家,见到了她如暴君一样残酷的父亲卡尔Karl(阿明·缪勒-斯塔尔饰)和风韵犹存的迷人母亲弗罗·文特Frau Winter(卡林·多尔饰),还有主仆斯卡弗小姐(Barbara Auer饰)、哑巴管家布鲁诺(Dieter Laser饰)。卡尔是一个统治欲很强的人,他要控制他身边的任何人,布鲁诺曾剪掉了自己的舌头,在卡尔老爷发脾气时守护在老爷的轮椅旁边威胁不喜欢他的人们,没有舌头的他可以守住所有的秘密。卡尔装作在女儿的爱情面前有最大的发言权,而凯瑟琳对罗伯特·法伯瑞表示也不做出任何回应,使罗伯特·法伯瑞陷入了极大的伤痛之中。
  接踵而来的便是带着心理研究的时有时无的浪漫、黑暗的家庭环境和上层社会人们舒适却空虚的生活。但是,在他们去卡萨布兰卡的旅行途中,却让这些有罪的人们为他们的罪行付出了代价……115网盘:http://115.com/lb/5lbaisn6phim
BT磁力:magnet:?xt=urn:btih:93e9009ac5a9fda279e18cb440bc019b856ba7d2&xl=490903394ed2k://│file│[阳光法国原创组][06年德国新电影运动著名女导演新作][我是另一个][德语中字].rmvb│490378063│D5226D115D505C88D324E16C841A1BD3│/
代码General
Complete name : [阳光法国原创组][06年德国新电影运动著名女导演新作][我是另一个][德语中字].rmvb
Format : RealMedia
File size : 468 MiB
Duration : 1h 39mn
Overall bit rate : 647 Kbps
Movie name : [我是另一个]
Performer : rainsoundwy★阳光法国★
Copyright : www.suneuro.orgVideo
ID : 1
Format : RealVideo 4
Codec ID : RV40
Codec ID/Info : Based on AVC (H.264), Real Player 9
Duration : 1h 39mn
Bit rate : 551 Kbps
Width : 800 pixels
Height : 452 pixels
Display aspect ratio : 16:9
Frame rate : 25.000 fps
Bits/(Pixel*Frame) : 0.061
Stream size : 394 MiB (84%)Audio
ID : 0
Format : AAC
Format/Info : Advanced Audio Codec
Format profile : LC
Codec ID : raac
Codec ID/Info : Real Player 9
Duration : 1h 39mn
Bit rate : 96.0 Kbps
Channel(s) : 2 channels
Sampling rate : 44.1 KHz
Bit depth : 16 bits
Compression mode : Lossy
Stream size : 68.6 MiB (15%)

相关热词搜索:【我是另一个】( Ich bin die Andere I Am the Other Woman )

上一篇:热血高校3 Crows.Explode.2014.720p
下一篇:【康乃馨之吻 / 色魔】(Carnal Sins)[成人片]

分享到: 收藏