首页 > 电影 > 正文

【新恋爱经】(A New Kind of Love)[DVDRip]
2014-08-27 06:17:13   来源:ed2k   评论:0 点击:

【新恋爱经】(A New Kind of Love)[DVDRip]电驴链接下载地址:




电骡资源下面是用户共享的文件列表. 安装电骡后, 您可以点击这些文件名进行下载 .New.Kind.of.Love.(1963).avi897.97MB 897.97MB电骡主页 | 下载电骡 | 使用指南 | 如何发布






资源分类:


电影
>>
欧美电影
>>
喜剧




中文名称:


新恋爱经





英文名称:


A New Kind of Love







资源格式:


DVDRip







发行时间:


1963






IMDB...:


http://www.imdb.com/title/tt0057360/






导演:


梅尔韦尔·沙维尔森 Melville Shavelson






演员:


# 保罗·纽曼 Paul Newman .....Steve Sherman
# 乔安娜·伍德沃德 Joanne Woodward .....Samantha (Sam) Blake/Mimi
# Thelma Ritter .....Leena
# Eva Gabor .....Felicienne Courbeau
# 乔治·托比厄斯 George Tobias .....Joe Bergner
# Marvin Kaplan .....Harry
# Robert Clary .....Frenchman at Restaurant
# Jan Moriarty .....Suzanne, Model with Umbrella
# Joan Staley .....Danish Stewardess
# Robert F. Simon .....Bertram Chalmers, Sherman's Boss
# Maurice Chevalier .....Himself
# Keith Dahle .....Shopper (as Galen Keith Dahle)
# 弗兰克·辛纳特拉 Frank Sinatra .....Singer behind opening credits






地区:


美国






语言:


英语, 法语








资源简介:















简介

The fashion industry and Paris provide the setting for a comedy surrounding the mistaken impression that Joanne Woodward is a high-priced call girl. Paul Newman is the journalist interviewing her for insights on her profession.











代码Complete name: New Kind of Love (1963).avi
Format : AVI
Format/Info: Audio Video Interleave
File size: 898 MiB
Duration : 1h 50mn
Overall bit rate : 1 137 Kbps
Writing application: VirtualDubMod 1.5.4.1 (build 2178/release)
Writing library: VirtualDubMod build 2178/release

Video
Format : MPEG-4 Visual
Format profile : Streaming Video@L1
Format settings, BVOP: Yes
Format settings, QPel: No
Format settings, GMC : No warppoints
Format settings, Matrix: Custom
Codec ID : XVID
Codec ID/Hint: XviD
Duration : 1h 50mn
Bit rate : 938 Kbps
Width: 720 pixels
Height : 416 pixels
Display aspect ratio : 16/9
Frame rate : 23.976 fps
Resolution : 24 bits
Colorimetry: 4:2:0
Scan type: Progressive
Bits/(Pixel*Frame) : 0.131
Stream size: 741 MiB (82%)
Writing library: XviD 1.2.0.dev47 (UTC 2006-11-01)

Audio
Format : MPEG Audio
Format version : Version 1
Format profile : Layer 3
Codec ID : 55
Codec ID/Hint: MP3
Duration : 1h 50mn
Bit rate mode: Constant
Bit rate : 192 Kbps
Minimum bit rate : 192 Kbps
Channel(s) : 2 channels
Sampling rate: 48.0 KHz
Resolution : 16 bits
Stream size: 152 MiB (17%)
Alignment: Aligned on interleaves
Interleave, duration : 83 ms (2.00 video frames)
Interleave, preload duration : 504 ms
Writing library: LAME3.97
Encoding settings: CBR























相关热词搜索:【新恋爱经】(A New Kind of Love)[DVDRip]

上一篇:【第三个愿望】(The Third Wish )DVDRip
下一篇:【美国丽人】(American Beauty)思路/720P[HDTV]

分享到: 收藏