首页 > 电影 > 正文

怎样谈恋爱 How.To.Fall.In.Love.2012.DVDRip
2014-07-21 21:05:09   来源:ed2k   评论:0 点击:

怎样谈恋爱 How.To.Fall.In.Love.2012.DVDRip电驴链接下载地址:


简介:
简介
It is a tale as old as time, a tale as old as space, a tale as old as love itself. What you have here is the would-be ugly duckling (who is actually a hottie) who convinces the out-and-out hottie to make him into a hottie. Of course, then new hottie and old hottie fall hot(tie) and heavy and there are issues which must then be resolved. Okay, we promise to never use the term 'hottie' again if you promise to consider watching Eric Mabius, Brooke D'Orsay, and Kathy Najimy in this Hallmark original.
代码 General
Complete name : How.To.Fall.In.Love.2012.DVDRip.XviD-PTpOWeR.avi
Format : AVI
Format/Info : Audio Video Interleave
File size : 654 MiB
Duration : 1h 23mn
Overall bit rate : 1 093 Kbps
Video #0
ID : 0
Format : MPEG-4 Visual
Format profile : Simple@L3
Format settings, BVOP : No
Format settings, QPel : No
Format settings, GMC : No warppoints
Format settings, Matrix : Default (H.263)
Codec ID : XVID
Codec ID/Hint : XviD
Duration : 1h 23mn
Source duration : 1h 23mn
Bit rate : 952 Kbps
Width : 624 pixels
Height : 352 pixels
Display aspect ratio : 16:9
Frame rate : 23.976 fps
Color space : YUV
Chroma subsampling : 4:2:0
Bit depth : 8 bits
Scan type : Progressive
Compression mode : Lossy
Bits/(Pixel*Frame) : 0.181
Stream size : 570 MiB (87%)
Writing library : XviD 1.1.2 (UTC 2006-11-01)
Audio #1
ID : 1
Format : MPEG Audio
Format version : Version 1
Format profile : Layer 3
Mode : Joint stereo
Mode extension : MS Stereo
Codec ID : 55
Codec ID/Hint : MP3
Duration : 1h 23mn
Bit rate mode : Constant
Bit rate : 128 Kbps
Channel(s) : 2 channels
Sampling rate : 48.0 KHz
Compression mode : Lossy
Stream size : 76.6 MiB (12%)
Alignment : Split accross interleaves
Interleave, duration : 24 ms (0.58 video frame)

相关热词搜索:欧美 怎样谈恋爱 How To Fall In Love 2012 DVDRip

上一篇:【黄飞鸿之二: 男儿当自强】(Once Upon a Time in China 2)CHD联盟(国粤)[720P]
下一篇:【身后事】(After Life)CHD联盟[720P]

分享到: 收藏